عزيزي الزائر / عزيزتي الزائرة يرجي التكرم بتسجبل الدخول اذا كنت عضو معنا
او التسجيل ان لم تكن عضو وترغب في الانضمام الي اسرة المنتدي
سنتشرف بتسجيلك
شكرا
ادارة المنتدي



 
الرئيسيةاليوميةس .و .جبحـثالأعضاءالمجموعاتالتسجيلدخول



شاطر | 
 

 فيلم الديزني Dinosaurs Alive 3D 2007 تورنت

استعرض الموضوع السابق استعرض الموضوع التالي اذهب الى الأسفل 
كاتب الموضوعرسالة
RED DEATH
الإدآره ~
الإدآره ~
avatar

♣ الدولٌه » : السعودية
♣ مشَارَڪاتْي » : 1380
♣ نُقآطِيْ » : 4655
♣ التسِجيلٌ » : 12/06/2012
♣ المكآن » : لامكان لاوطن :(

مُساهمةموضوع: فيلم الديزني Dinosaurs Alive 3D 2007 تورنت    الأربعاء أكتوبر 17, 2012 11:00 pm


Dinosaurs Alive 3D 2007



[ندعوك للتسجيل في المنتدى أو التعريف بنفسك لمعاينة هذه الصورة]


Film in 3D Over-Under.
To play the video requires the right equipment (3D TV)

A copy of the mini-HD 1080p = 2.63 GB only

Directed by: David Clark, Bayley Silleck
Screenplay: David Clark
Release Date: 7 September 2007 (Poland) 2007-09-07 March 30, 2007 (World) 2007-03-30
Country: USA
Genre: Documentary, Short

Copies of 3D SBS
(OU) mini-HD, a copy of specialized high-resolution (1920 x 1080),
which, despite its low weight (in MB) retain high quality.

General
Complete name: E: FilmyFilmy 3DSzablonWstawkaDINO_3D_BD (Leon 345) DINO_3D_BD (Leon 345). Mkv
Format: Matroska
File size: 2.64 GiB
Duration: 39mn 54s
Encoding type: 2 Pass
Overall bit rate: 9 456 Kbps
Movie name: DINO_3D_BD.Title4.Bluray3DRip
Encoded date: UTC 2012-07-09 2:07:41 p.m.
Writing application: DVDFab
Writing library: libebml v0.7.8 + libmatroska v0.8.1

Video
ID: 1
Encoding type: 2 Pass
Format: AVC
Format / Info: Advanced Video Codec
Format profile: High@L5.1
Format settings, CABAC: Yes
Format settings, ReFrames: 2 frames
Muxing mode: Container profile = Unknown@5.1
Codec ID: V_MPEG4/ISO/AVC
Duration: 39mn 52s
Bit rate: 8 820 Kbps
Width: 1 920 pixels
Height: 1 080 pixels
Display aspect ratio: 16:9
Frame rate: 23.976 fps
Resolution: 8 bits
Colorimetry: 4:2:0
Scan type: Progressive
Bits / (Pixel * Frame): 0.177
Stream size: 2.46 GiB (93%)
Writing library: x264 core
Color primaries: BT.709-5, BT.1361, IEC 61966-2-4, SMPTE RP177
Transfer characteristics: BT.709-5, BT.1361
Matrix coefficients: BT.709-5, BT.1361, IEC 61966-2-4 709, SMPTE RP177

Audio
ID: 2
Format: AC-3
Format / Info: Audio Coding 3
Codec ID: A_AC3
Duration: 39mn 54s
Bit rate mode: Constant
Bit rate: 448 Kbps
Channel (s): 6 channels
Channel positions: Front: LCR, Side: LR, LFE
Sampling rate: 48.0 KHz
Stream size: 128 MiB (5%)
Language: Angielski

التحميل من [ندعوك للتسجيل في المنتدى أو التعريف بنفسك لمعاينة هذا الرابط]

I love you
الرجوع الى أعلى الصفحة اذهب الى الأسفل
http://red-death.forumarabia.com
 

فيلم الديزني Dinosaurs Alive 3D 2007 تورنت

استعرض الموضوع السابق استعرض الموضوع التالي الرجوع الى أعلى الصفحة 
صفحة 1 من اصل 1

 مواضيع مماثلة

-
» أجمل نكت 2007 يارب تعجبكوا
» اسطوانة لتعلم الباوربوينت2007 رووووووعه
» افضل عشر افلام 2007
» اكبر مكتبة افلام اجنبى2007
» موقف مبكي حصل في موسم الحج لعام 2007

صلاحيات هذا المنتدى:لاتستطيع الرد على المواضيع في هذا المنتدى
 :: افلام هوليووود - Hollywood movies :: افلام 3D ثلاثي الابعاد - 3D three-dimensional-