عزيزي الزائر / عزيزتي الزائرة يرجي التكرم بتسجبل الدخول اذا كنت عضو معنا
او التسجيل ان لم تكن عضو وترغب في الانضمام الي اسرة المنتدي
سنتشرف بتسجيلك
شكرا
ادارة المنتدي



 
الرئيسيةاليوميةس .و .جبحـثالأعضاءالمجموعاتالتسجيلدخول



شاطر | 
 

 فيلم الديزني Lorax 3D 2012 تورنت

استعرض الموضوع السابق استعرض الموضوع التالي اذهب الى الأسفل 
كاتب الموضوعرسالة
RED DEATH
الإدآره ~
الإدآره ~
avatar

♣ الدولٌه » : السعودية
♣ مشَارَڪاتْي » : 1380
♣ نُقآطِيْ » : 4655
♣ التسِجيلٌ » : 12/06/2012
♣ المكآن » : لامكان لاوطن :(

مُساهمةموضوع: فيلم الديزني Lorax 3D 2012 تورنت   الأربعاء أكتوبر 17, 2012 10:56 pm


Lorax 3D 2012


.[ندعوك للتسجيل في المنتدى أو التعريف بنفسك لمعاينة هذا الرابط]

Film in 3D Over-Under.
To play the video requires the right equipment (3D TV)
================================================== ====

A copy of the mini-HD 1080p = 3.93 GB only

Genre: Animation, Family, Fantasy
Release Date: March 9, 2012 (Poland), March 2, 2012 (world)
Country: USA

Copies of 3D SBS (OU) mini-HD, a copy of
specialized high-resolution (1920 x 1080), which, despite its low weight
(in MB) retain high quality.

THESE COPIES OF LEON 345 ​​TECHNICIAN SPECIAL FOR YOU

General
Complete name: E: FilmyFilmy 3DSzablonWstawkaDR_SEUSS_THE_LORAX_3D_3DT (Leon 345) DR_SEUSS_THE_LORAX_3D_3DT (Leon 345). Mkv
Format: Matroska
File size: 3.93 GiB
Duration: 1h 26mn
Encoding type: 2 Pass
Overall bit rate: 6 529 Kbps
Movie name: DR_SEUSS_THE_LORAX_3D_3DT.Title2.Bluray3DRip
Encoded date: UTC 2012-08-06 6:30:54 p.m.
Writing application: mkvmerge v5.2.1 ('A Far Off Place' built on Jan 2 2012 11:21:10 p.m.
Writing library: libebml v1.2.3 + libmatroska v1.3.0

Video
ID: 1
Format: AVC
Format / Info: Advanced Video Codec
Format profile: High@L5.1
Format settings, CABAC: Yes
Format settings, ReFrames: 2 frames
Muxing mode: Container profile = Unknown@5.1
Codec ID: V_MPEG4/ISO/AVC
Duration: 1h 26mn
Bit rate: 6000 Kbps
Width: 1 920 pixels
Height: 1 080 pixels
Display aspect ratio: 16:9
Frame rate: 23.976 fps
Resolution: 8 bits
Colorimetry: 4:2:0
Scan type: Progressive
Bits / (Pixel * Frame): 0.120
Stream size: 3.58 GiB (91%)
Title: Rip by Leon 345 encoded 2 pass
Writing library: x264 core
Color primaries: BT.709-5, BT.1361, IEC 61966-2-4, SMPTE RP177
Transfer characteristics: BT.709-5, BT.1361
Matrix coefficients: BT.709-5, BT.1361, IEC 61966-2-4 709, SMPTE RP177

Audio
ID: 2
Format: AC-3
Format / Info: Audio Coding 3
Codec ID: A_AC3
Duration: 1h 26mn
Bit rate mode: Constant
Bit rate: 448 Kbps
Channel (s): 6 channels
Channel positions: Front: LCR, Side: LR, LFE
Sampling rate: 48.0 KHz
Stream size: 276 MiB (7%)
Language: English

التحميل من [ندعوك للتسجيل في المنتدى أو التعريف بنفسك لمعاينة هذا الرابط]

I love you
الرجوع الى أعلى الصفحة اذهب الى الأسفل
http://red-death.forumarabia.com
zeyadatta



♣ الدولٌه » : غير معروف
♣ مشَارَڪاتْي » : 2
♣ نُقآطِيْ » : 2
♣ التسِجيلٌ » : 11/08/2013
♣ العـٍمـرَ » : 48
♣ المكآن » : القاهره

مُساهمةموضوع: رد: فيلم الديزني Lorax 3D 2012 تورنت   الأحد أغسطس 11, 2013 3:46 pm

ok
الرجوع الى أعلى الصفحة اذهب الى الأسفل
zeyadatta



♣ الدولٌه » : غير معروف
♣ مشَارَڪاتْي » : 2
♣ نُقآطِيْ » : 2
♣ التسِجيلٌ » : 11/08/2013
♣ العـٍمـرَ » : 48
♣ المكآن » : القاهره

مُساهمةموضوع: رد: فيلم الديزني Lorax 3D 2012 تورنت   الأحد أغسطس 11, 2013 3:47 pm

Cool
الرجوع الى أعلى الصفحة اذهب الى الأسفل
 

فيلم الديزني Lorax 3D 2012 تورنت

استعرض الموضوع السابق استعرض الموضوع التالي الرجوع الى أعلى الصفحة 
صفحة 1 من اصل 1

 مواضيع مماثلة

-
» نهايه العالم 2012 نبؤه ام حقيقه علميه
» قرعة تصفيات كاس امم افريقيا.2012
» وداعاً للأرض هل نقولها عام 2012
» اخبار ::: تصفيات يورو 2012
» تصفيات كأس افريقيا 2012 الجولة الأولى الجزائر 1- تنزانيا 1: الخضر يخيبون أنصارهم أداء ونتيجة والجماهير تصرخ إرحل ياسعدان

صلاحيات هذا المنتدى:لاتستطيع الرد على المواضيع في هذا المنتدى
 :: افلام هوليووود - Hollywood movies :: افلام 3D ثلاثي الابعاد - 3D three-dimensional-