عزيزي الزائر / عزيزتي الزائرة يرجي التكرم بتسجبل الدخول اذا كنت عضو معنا
او التسجيل ان لم تكن عضو وترغب في الانضمام الي اسرة المنتدي
سنتشرف بتسجيلك
شكرا
ادارة المنتدي



 
الرئيسيةاليوميةس .و .جبحـثالأعضاءالمجموعاتالتسجيلدخول



شاطر | 
 

 فيلم الرعب My Bloody Valentine 3D تورنت

استعرض الموضوع السابق استعرض الموضوع التالي اذهب الى الأسفل 
كاتب الموضوعرسالة
RED DEATH
الإدآره ~
الإدآره ~
avatar

♣ الدولٌه » : السعودية
♣ مشَارَڪاتْي » : 1380
♣ نُقآطِيْ » : 4655
♣ التسِجيلٌ » : 12/06/2012
♣ المكآن » : لامكان لاوطن :(

مُساهمةموضوع: فيلم الرعب My Bloody Valentine 3D تورنت   الأربعاء أكتوبر 17, 2012 10:49 pm




[ندعوك للتسجيل في المنتدى أو التعريف بنفسك لمعاينة هذه الصورة]


Complete name : ngr-mbv.3d.mkv
Format : Matroska
File size : 4.35 GiB
Duration : 1h 41mn
Overall bit rate : 6 172 Kbps
Encoded date : UTC 2009-05-07 13:00:34
Writing application : mkvmerge v2.1.0 ('Another Place To Fall') built on Aug 19 2007 13:40:07
Writing library : libebml v0.7.7 + libmatroska v0.8.1

Video
ID : 1
Format : AVC
Format/Info : Advanced Video Codec
Format profile : High@L4.1
Format settings, CABAC : Yes
Format settings, ReFrames : 5 frames
Muxing mode : Container profile=Unknown@4.1
Codec ID : V_MPEG4/ISO/AVC
Duration : 1h 40mn
Bit rate : 5 409 Kbps
Nominal bit rate : 5 529 Kbps
Width : 1 280 pixels
Height : 720 pixels
Display aspect ratio : 16:9
Frame rate : 23.976 fps
Resolution : 8 bits
Colorimetry : 4:2:0
Scan type : Progressive
Bits/(Pixel*Frame) : 0.245
Stream size : 3.81 GiB (88%)
Writing library : x264 core 67 r1145M d2e1e1c
Encoding
settings : cabac=1 / ref=5 / deblock=1:0:0 /
*censored*yse=0x3:0x2 / me=umh / subme=7 / psy_rd=1.0:0.0 / mixed_ref=1 /
me_range=16 / chroma_me=1 / trellis=1 / 8x8dct=1 / cqm=2 /
deadzone=21,11 / chroma_qp_offset=-2 / threads=16 / nr=0 / decimate=1 /
mbaff=0 / bframes=3 / b_pyramid=1 / b_adapt=1 / b_bias=0 / direct=1 /
wpredb=1 / keyint=250 / keyint_min=25 / scenecut=40 / rc=2pass /
bitrate=5529 / ratetol=1.0 / qcomp=0.60 / qpmin=10 / qpmax=51 / qpstep=4
/ cplxblur=20.0 / qblur=0.5 / ip_ratio=1.40 / pb_ratio=1.30 / aq=1:1.00
Language : English

Audio
ID : 2
Format : AC-3
Format/Info : Audio Coding 3
Codec ID : A_AC3
Duration : 1h 41mn
Bit rate mode : Constant
Bit rate : 640 Kbps
Channel(s) : 6 channels
Channel positions : Front: L C R, Side: L R, LFE
Sampling rate : 48.0 KHz
Stream size : 462 MiB (10%)







التحميل من [ندعوك للتسجيل في المنتدى أو التعريف بنفسك لمعاينة هذا الرابط]

I love you

الرجوع الى أعلى الصفحة اذهب الى الأسفل
http://red-death.forumarabia.com
 

فيلم الرعب My Bloody Valentine 3D تورنت

استعرض الموضوع السابق استعرض الموضوع التالي الرجوع الى أعلى الصفحة 
صفحة 1 من اصل 1

صلاحيات هذا المنتدى:لاتستطيع الرد على المواضيع في هذا المنتدى
 :: افلام هوليووود - Hollywood movies :: افلام 3D ثلاثي الابعاد - 3D three-dimensional-